Купить за 1600 RUB (~27 USD)

Pinnacle Studio 22 & Content Plus v.8.0

Расширьте возможности Pinnacle Studio простым способом!

Страница 6 из 6 ПерваяПервая ... 56
Показано с 51 по 54 из 54

Тема: Не показывает видео

  1. #51
    Администратор
    Регистрация
    18.04.2012
    Сообщений
    14 542
    Сравните кодеки сжатия у этих видео, они быстрей всего разные.
    Попробуйте обновиться до версии 21.5 (если есть такая возможность).
    Но в любом случае нельзя монтировать видео с переменной частой кадров.

  2. #52
    Участник форума
    Регистрация
    14.03.2015
    Сообщений
    15
    Попыталась обновиться. Получилось то о чем предупреждали в группе в Контакте. Появилось сообщение, что я не зарегистрировагный пользователь и предложили перустановить пограмму

  3. #53
    Администратор
    Регистрация
    18.04.2012
    Сообщений
    14 542
    Версию скачанную с Интернета нельзя обновлять, я же вам написал

    Цитата Сообщение от StCnt Посмотреть сообщение
    если есть такая возможность

  4. #54
    Участник форума
    Регистрация
    14.03.2015
    Сообщений
    15
    Вот инфо файла, который пинакл хорошо видит.
    Код:
    Общее
    Полное имя                               : D:\75v\VID_20180409_193644.mp4
    Формат                                   : MPEG-4
    Профиль формата                          : Base Media / Version 2
    Идентификатор кодека                     : mp42 (isom/mp42)
    Размер файла                             : 2,00 Гбайт
    Продолжительность                        : 23 м. 12 с.
    Общий поток                              : 12,3 Мбит/сек
    Дата кодирования                         : UTC 2018-04-09 16:36:44
    Дата пометки                             : UTC 2018-04-09 16:36:44
    com.android.version                      : 8.0.0
    
    Видео
    Идентификатор                            : 1
    Формат                                   : AVC
    Формат/Информация                        : Advanced Video Codec
    Профиль формата                          : High@L4
    Настройки формата                        : CABAC / 1 Ref Frames
    Параметр CABAC формата                   : Да
    Параметр RefFrames формата               : 1 кадр
    Параметр GOP формата                     : M=1, N=30
    Идентификатор кодека                     : avc1
    Идентификатор кодека/Информация          : Advanced Video Coding
    Продолжительность                        : 23 м. 12 с.
    Продолжительность оригинала              : 23 м. 12 с.
    Битрейт                                  : 12,1 Мбит/сек
    Ширина                                   : 1920 пикселей
    Высота                                   : 1080 пикселей
    Соотношение сторон                       : 16:9
    Режим частоты кадров                     : Переменный
    Частота кадров                           : 29,820 кадров/сек
    Минимальная частота кадров               : 27,574 кадров/сек
    Максимальная частота кадров              : 29,920 кадров/сек
    Цветовое пространство                    : YUV
    Субдискретизация насыщенности            : 4:2:0
    Битовая глубина                          : 8 бит
    Тип развёртки                            : Прогрессивная
    Бит/(Пиксели*Кадры)                      : 0.196
    Размер потока                            : 1,97 Гбайт (98%)
    Размер потока оригинала                  : 1,97 Гбайт (98%)
    Заголовок                                : VideoHandle
    Язык                                     : English
    Дата кодирования                         : UTC 2018-04-09 16:36:44
    Дата пометки                             : UTC 2018-04-09 16:36:44
    mdhd_Duration                            : 1392650
    
    Аудио
    Идентификатор                            : 2
    Формат                                   : AAC
    Формат/Информация                        : Advanced Audio Codec
    Профиль формата                          : LC
    Идентификатор кодека                     : mp4a-40-2
    Продолжительность                        : 23 м. 12 с.
    Продолжительность оригинала              : 23 м. 12 с.
    Вид битрейта                             : Постоянный
    Битрейт                                  : 192 Кбит/сек
    Каналы                                   : 2 канала
    Расположение каналов                     : Front: L R
    Частота                                  : 48,0 КГц
    Частота кадров                           : 46,875 кадров/сек (1024 SPF)
    Метод сжатия                             : С потерями
    Размер потока                            : 31,9 Мбайт (2%)
    Размер потока оригинала                  : 31,9 Мбайт (2%)
    Заголовок                                : SoundHandle
    Язык                                     : English
    Дата кодирования                         : UTC 2018-04-09 16:36:44
    Дата пометки                             : UTC 2018-04-09 16:36:44
    mdhd_Duration                            : 1392852

Страница 6 из 6 ПерваяПервая ... 56

Ваши права

  • Вы не можете создавать новые темы
  • Вы не можете отвечать в темах
  • Вы не можете прикреплять вложения
  • Вы не можете редактировать свои сообщения
  •