Купить за 800 RUB (~12 USD)

Pinnacle Studio 24 & Content Plus v.10.0

Расширьте возможности Pinnacle Studio простым способом!

Страница 1 из 2 12 ПоследняяПоследняя
Показано с 1 по 10 из 15

Тема: Pinnacle Studio 24 - Шипящий звук

  1. #1
    Участник форума
    Регистрация
    17.08.2020
    Сообщений
    11

    Pinnacle Studio 24 - Шипящий звук

    После экспорте при воспроизведения звук иногда щипит да и в редакторе он тоже иногда щипит.

    Может у меня нет видеокарты или что-то ещё? как исправить это?

  2. #2
    Администратор
    Регистрация
    18.04.2012
    Сообщений
    15 711
    Выложите технические характеристики исходного видео.

    Изначально дефекта звука в исходных файлах не было?

  3. #3
    Участник форума
    Регистрация
    17.08.2020
    Сообщений
    11
    Выложите технические характеристики исходного видео.


    Изначально дефекта звука в исходных файлах не было?
    Нет

    - - - - - Добавлено - - - - -

    Это происходит с любым видео у которого есть звук

  4. #4
    Администратор
    Регистрация
    18.04.2012
    Сообщений
    15 711
    Этого мало. Получите характеристики с помощью программы MediaInfo

    Но у вас и так видно, что у видео частота кадров 15 кадр/c, что быстрей всего и приводит к проблеме.

    Попробуйте разделить видео и аудио на разные дорожки.

  5. #5
    Участник форума
    Регистрация
    17.08.2020
    Сообщений
    11
    Код:
    Общее
    Полное имя                               : C:\Users\TBOIR\Videos\Logitech Webcam\Video 84.wmv
    Формат                                   : Windows Media
    Размер файла                             : 5,04 Мбайт
    Продолжительность                        : 5 с. 901 мс.
    Режим общего битрейта                    : Переменный
    Общий поток                              : 7 165 Кбит/сек
    Максимальный общий битрейт               : 8 540 Кбит/сек
    Дата кодирования                         : UTC 2020-08-18 01:00:38.655
    
    Видео
    Идентификатор                            : 2
    Формат                                   : WMV2
    Идентификатор кодека                     : WMV2
    Идентификатор кодека/Информация          : Windows Media Video 8
    Описание кодека                          : Windows Media Video V8
    Вид битрейта                             : Переменный
    Битрейт                                  : 4 403 Кбит/сек
    Ширина                                   : 1 280 пикселей
    Высота                                   : 720 пикселей
    Соотношение сторон                       : 16:9
    Режим частоты кадров                     : Переменный
    Номинальная частота кадров               : 15,000 кадров/сек
    Битовая глубина                          : 8 бит
    Язык                                     : Russian
    
    Аудио
    Идентификатор                            : 1
    Формат                                   : WMA
    Версия формата                           : Version 2
    Идентификатор кодека                     : 161
    Идентификатор кодека/Информация          : Windows Media Audio
    Описание кодека                          : Windows Media Audio 9.2 - 191 kbps, 48 kHz, stereo Low Delay 1-pass CBR
    Продолжительность                        : 5 с. 901 мс.
    Вид битрейта                             : Постоянный
    Битрейт                                  : 1 411 Кбит/сек
    Каналы                                   : 2 канала
    Частота                                  : 48,0 КГц
    Битовая глубина                          : 16 бит
    Размер потока                            : 1 017 Кбайт (20%)
    Язык                                     : Russian

  6. #6
    Администратор
    Регистрация
    18.04.2012
    Сообщений
    15 711
    Код:
    Режим частоты кадров                     : Переменный
    Номинальная частота кадров               : 15,000 кадров/сек
    Вот ваша проблема. С этим видео в любом видеоредакторе будут проблемы.
    Конвертируйте его с постоянной частотой кадров, а потом добавляйте в программу.

  7. #7
    Участник форума
    Регистрация
    17.08.2020
    Сообщений
    11
    не помогло после конвертации звук идёт также и щипит

    Код:
    Общее
    Полное имя                               : C:\Users\TBOIR\Videos\Movavi Library\Video 84.mp4
    Формат                                   : MPEG-4
    Профиль формата                          : Base Media
    Идентификатор кодека                     : isom (isom/iso2/avc1/mp41)
    Размер файла                             : 874 Кбайт
    Продолжительность                        : 5 с. 955 мс.
    Режим общего битрейта                    : Переменный
    Общий поток                              : 1 202 Кбит/сек
    Программа кодирования                    : Lavf58.12.100
    
    Видео
    Идентификатор                            : 1
    Формат                                   : AVC
    Формат/Информация                        : Advanced Video Codec
    Профиль формата                          : Main@L4.2
    Настройки формата                        : CABAC / 1 Ref Frames
    Параметр CABAC формата                   : Да
    Параметр RefFrames формата               : 1 кадр
    Параметр GOP формата                     : M=1, N=30
    Идентификатор кодека                     : avc1
    Идентификатор кодека/Информация          : Advanced Video Coding
    Продолжительность                        : 5 с. 955 мс.
    Битрейт                                  : 8 576 Кбит/сек
    Ширина                                   : 1 280 пикселей
    Высота                                   : 720 пикселей
    Соотношение сторон                       : 16:9
    Частота кадров                           : 240,000 кадров/сек
    Стандарт вещания                         : Component
    Цветовое пространство                    : YUV
    Субдискретизация насыщенности            : 4:2:0
    Битовая глубина                          : 8 бит
    Тип развёртки                            : Прогрессивная
    Бит/(Пиксели*Кадры)                      : 0.039
    Размер потока                            : 742 Кбайт (85%)
    Язык                                     : Russian
    Цветовой диапазон                        : Limited
    Codec configuration box                  : avcC
    
    Аудио
    Идентификатор                            : 2
    Формат                                   : AAC LC
    Формат/Информация                        : Advanced Audio Codec Low Complexity
    Идентификатор кодека                     : mp4a-40-2
    Продолжительность                        : 5 с. 910 мс.
    Вид битрейта                             : Переменный
    Битрейт                                  : 175 Кбит/сек
    Максимальный битрейт                     : 192 Кбит/сек
    Каналы                                   : 2 канала
    Channel layout                           : L R
    Частота                                  : 48,0 КГц
    Частота кадров                           : 46,875 кадров/сек (1024 SPF)
    Метод сжатия                             : С потерями
    Размер потока                            : 126 Кбайт (14%)
    Язык                                     : Russian
    Default                                  : Да
    Alternate group                          : 1
    - - - - - Добавлено - - - - -

    Вот как я конвертировал



    Я конвертировал с помощью movavi video suite конвертор

  8. #8
    Администратор
    Регистрация
    18.04.2012
    Сообщений
    15 711
    Код:
    Частота кадров                           : 240,000 кадров/сек
    Из одной крайности в другую?

    Звук у вас был переконвертирован, если дефекты остались и они повторяются в одни и тех же местах, значить проблемы с исходными файлами.

    Выложите ваше исходное и видео и укажите участок времени на котором появляется дефект, я проверю у себя.

  9. #9
    Участник форума
    Регистрация
    17.08.2020
    Сообщений
    11
    у меня исходный файл в полном порядке он щипит по разному. когда ты просто возпроизводишь оригинальный файл в оригинальном проигрывателе он работает нормальном

    - - - - - Добавлено - - - - -

    вообще щипение происходит когда я делаю эффект скорости видео. вот там и начинаются проблеммы

  10. #10
    Администратор
    Регистрация
    18.04.2012
    Сообщений
    15 711
    Цитата Сообщение от hytalego Посмотреть сообщение
    вообще щипение происходит когда я делаю эффект скорости видео. вот там и начинаются проблеммы
    Я вам в 4 сообщении написал что делать

    Цитата Сообщение от StCnt Посмотреть сообщение
    Попробуйте разделить видео и аудио на разные дорожки.
    Или попробуйте в эффекте скорость включить функцию "Задержать звук"



    P.S. В общем причина вашей проблемы определена: переменная частота кадров, и решать её нужно не в Pinnacle Studio, а в конвертере видео. То есть подготовить ваше видео для видеомонтажа.

Ваши права

  • Вы не можете создавать новые темы
  • Вы не можете отвечать в темах
  • Вы не можете прикреплять вложения
  • Вы не можете редактировать свои сообщения
  •