Купить от 990 RUB (~14 USD)

Pinnacle Studio 25 & Content Plus v.11.0

Расширьте возможности Pinnacle Studio простым способом!

Показано с 1 по 5 из 5

Тема: После применения скорости на видео появляется гребёнка

Информационный блок автора темы: После применения скорости на видео появляется гребёнка

Категория:
Проблема с программой
Операционная система
Windows 10
Версия Pinnacle Studio
23
У меня в профиле заполнена конфигурация компьютера
Нет
  1. #1
    Участник форума
    Регистрация
    08.09.2013
    Сообщений
    3

    После применения скорости на видео появляется гребёнка

    Здравствуйте. Пришлось переустановить Windows 10 по причине постоянных вылетов Pinnacle Studio 23 при применении цветокоррекции. Не помогло. Добавилась другая проблема при изменение временных настроек на видео появляется вот такая гребенка


  2. #2
    Администратор
    Регистрация
    18.04.2012
    Сообщений
    16 315
    По первой проблеме, это типична ошибка в 23 версии, была исправлена в 24.

    По второй проблеме, выложите технические данные исходного видео или хотя бы каким кодеком сжато видео.

  3. #3
    Участник форума
    Регистрация
    08.09.2013
    Сообщений
    3
    Характеристики видео:
    Код:
    Video
    ID                             : 1
    Format                         : HEVC
    Format/Info                    : High Efficiency Video Coding
    Format profile                 : Main@L5@High
    Codec ID                       : hvc1
    Codec ID/Info                  : High Efficiency Video Coding
    Duration                       : 30s 764ms
    Bit rate                       : 96.7 Mbps
    Width                          : 1 920 pixels
    Height                         : 1 080 pixels
    Display aspect ratio           : 16:9
    Frame rate mode                : Constant
    Frame rate                     : 29.970 fps
    Color space                    : YUV
    Chroma subsampling             : 4:2:0
    Bit depth                      : 8 bits
    Bits/(Pixel*Frame)             : 1.557
    Stream size                    : 355 MiB (100%)
    Writing library                : x265 3.0+2-g7211bbf68:[Windows][MSVC 1916][64 bit] 8bit
    Encoded date                   : UTC 2020-04-16 14:06:27
    Tagged date                    : UTC 2020-04-16 14:06:27
    
    Audio
    ID                             : 2
    Format                         : AAC
    Format/Info                    : Advanced Audio Codec
    Format profile                 : LC
    Codec ID                       : 40
    Duration                       : 30s 805ms
    Bit rate mode                  : Constant
    Bit rate                       : 129 Kbps
    Channel(s)                     : 2 channels
    Channel positions              : Front: L R
    Sampling rate                  : 48.0 KHz
    Compression mode               : Lossy
    Stream size                    : 487 KiB (0%)
    Encoded date                   : UTC 2020-04-16 14:06:27
    Tagged date                    : UTC 2020-04-16 14:06:27

  4. #4
    Администратор
    Регистрация
    18.04.2012
    Сообщений
    16 315
    Вам необходимо установить кодек HEVC в систему

    Сейчас он стал платным
    https://www.microsoft.com/ru-ru/p/Ра...c/9nmzlz57r3t7

    Но ещё есть возможность установить бесплатно
    https://www.microsoft.com/ru-ru/p/he...r/9n4wgh0z6vhq

  5. #5
    Участник форума
    Регистрация
    08.09.2013
    Сообщений
    3
    Спасибо! После установки кодека, гребенка исчезла.

Ваши права

  • Вы не можете создавать новые темы
  • Вы не можете отвечать в темах
  • Вы не можете прикреплять вложения
  • Вы не можете редактировать свои сообщения
  •