Купить от 990 RUB (~14 USD)

Pinnacle Studio 24 & Content Plus v.10.0

Расширьте возможности Pinnacle Studio простым способом!

Показано с 1 по 8 из 8

Тема: Появляются серые кадры в местах переходов

Информационный блок автора темы: Появляются серые кадры в местах переходов

Категория:
Проблема с программой
Операционная система
Windows 10
Версия Pinnacle Studio
23
У меня в профиле заполнена конфигурация компьютера
Нет
  1. #1
    Участник форума
    Регистрация
    30.05.2013
    Сообщений
    4

    Появляются серые кадры в местах переходов

    Здравствуйте. Появилась такая проблема в Pinnacle Studio 23. Во время монтажа в местах переходах появляются серые кадры со стрелочкой.



    Подскажите, что делать?

  2. #2
    Администратор
    Регистрация
    18.04.2012
    Сообщений
    15 967
    У вас быстрей всего видео с переменной частотой кадров.

    Выложите параметры проекта и технические характеристики исходного видео.

  3. #3
    Участник форума
    Регистрация
    30.05.2013
    Сообщений
    4
    Проект: 1920x1080/60

    Характеристики
    Код:
    Video
    ID                             : 1
    Format                         : AVC
    Format/Info                    : Advanced Video Codec
    Format profile                 : High@L4.1
    Format settings, CABAC         : Yes
    Format settings, ReFrames      : 1 frame
    Format settings, GOP           : M=1, N=60
    Codec ID                       : avc1
    Codec ID/Info                  : Advanced Video Coding
    Duration                       : 15s 327ms
    Bit rate                       : 20.0 Mbps
    Width                          : 1 920 pixels
    Height                         : 1 080 pixels
    Display aspect ratio           : 16:9
    Frame rate mode                : Variable
    Frame rate                     : 59.940 fps
    Minimum frame rate             : 33.520 fps
    Maximum frame rate             : 60.362 fps
    Color space                    : YUV
    Chroma subsampling             : 4:2:0
    Bit depth                      : 8 bits
    Scan type                      : Progressive
    Bits/(Pixel*Frame)             : 0.161
    Stream size                    : 36.5 MiB (97%)
    Title                          : VideoHandle
    Language                       : English
    Encoded date                   : UTC 2019-09-17 10:37:41
    Tagged date                    : UTC 2019-09-17 10:37:41
    Color range                    : Limited
    Color primaries                : BT.601 PAL
    mdhd_Duration                  : 15327
    
    Audio
    ID                             : 2
    Format                         : AAC
    Format/Info                    : Advanced Audio Codec
    Format profile                 : LC
    Codec ID                       : 40
    Duration                       : 15s 275ms
    Bit rate mode                  : Constant
    Bit rate                       : 128 Kbps
    Channel(s)                     : 2 channels
    Channel positions              : Front: L R
    Sampling rate                  : 48.0 KHz
    Compression mode               : Lossy
    Stream size                    : 239 KiB (1%)
    Title                          : SoundHandle
    Language                       : English
    Encoded date                   : UTC 2019-09-17 10:37:41
    Tagged date                    : UTC 2019-09-17 10:37:41

  4. #4
    Администратор
    Регистрация
    18.04.2012
    Сообщений
    15 967
    Так и есть, видео с переменной частотой кадров
    Код:
    Frame rate mode                : Variable
    Frame rate                     : 59.940 fps
    Minimum frame rate             : 33.520 fps
    Maximum frame rate             : 60.362 fps
    Конвертируйте видео с постоянной частотой кадров и серые кадры пропадут.

  5. #5
    Участник форума
    Регистрация
    30.05.2013
    Сообщений
    4
    Спасибо. Конвертация помогла, но появилась другая проблема, в некоторых местах видео стало замирать на доли секунды.

  6. #6
    Администратор
    Регистрация
    18.04.2012
    Сообщений
    15 967
    Замирает из-за того, что появились статические кадры при конвертировании.

    Оптимальный вариант, такое видео конвертировать с помощью ProDAD ReSpeedr.

    Открываете видео в программе, и устанавливаете метод расчёта в наилучшее качество, это позволит качественно восстановить недостающие кадры для плавности картинки.



    Далее на вкладке "Target Media" нажимаете "Edit..." и выбираете необходимую частоту кадров или оставляете выбранную программой частоту кадров.



    Единственное бывает, ProDAD ReSpeedr выводит также с переменной частотой кадров в диапазоне 59.92-59.96 кадр/с, если в настройках установить пользовательские настройки частоты кадров 59.94 кадр/с. Но с этим видео Pinnacle Studio работает нормально, так как расхождение частоты кадров небольшое.

  7. #7
    Участник форума
    Регистрация
    30.05.2013
    Сообщений
    4
    StCnt, а где можно скачать ProDAD ReSpeedr?

  8. #8
    Администратор
    Регистрация
    18.04.2012
    Сообщений
    15 967

Ваши права

  • Вы не можете создавать новые темы
  • Вы не можете отвечать в темах
  • Вы не можете прикреплять вложения
  • Вы не можете редактировать свои сообщения
  •