Купить от 990 RUB (~14 USD)

Pinnacle Studio 24 & Content Plus v.10.0

Расширьте возможности Pinnacle Studio простым способом!

Показано с 1 по 3 из 3

Тема: Отсутствует звук после экспорта

  1. #1
    Участник форума
    Регистрация
    20.02.2021
    Сообщений
    2

    Отсутствует звук после экспорта

    Здравствуйте. У меня такая проблема в Pinnacle Studio 24, в проекте все файлы из одного источника. Пока редактируешь все нормально. После экспорта, в выведенном файле, местами пропадает звук. Пробовал выводить в разные форматы, звук пропадает в разных местах.

    Конвертировал звук в WAV, проблема остается.

    Из MediaInfo
    Код:
    General
    Format                         : MPEG-4
    Format profile                 : Base Media / Version 2
    Codec ID                       : mp42 (isom/mp42)
    File size                      : 1.23 GiB
    Duration                       : 8 min 46 s
    Overall bit rate               : 20.1 Mb/s
    Encoded date                   : UTC 2021-02-14 10:22:17
    Tagged date                    : UTC 2021-02-14 10:22:17
    ©xyz                           : +48.9620+014.4681/
    com.android.version            : 10
    
    Video
    ID                             : 1
    Format                         : AVC
    Format/Info                    : Advanced Video Codec
    Format profile                 : High@L4
    Format settings, CABAC         : Yes
    Format settings, RefFrames     : 1 frame
    Format settings, GOP           : M=1, N=30
    Codec ID                       : avc1
    Codec ID/Info                  : Advanced Video Coding
    Duration                       : 8 min 46 s
    Source duration                : 8 min 46 s
    Bit rate                       : 20.0 Mb/s
    Width                          : 1 920 pixels
    Height                         : 1 080 pixels
    Display aspect ratio           : 16:9
    Frame rate mode                : Variable
    Frame rate                     : 30.000 FPS
    Minimum frame rate             : 10.001 FPS
    Maximum frame rate             : 42.918 FPS
    Standard                       : NTSC
    Color space                    : YUV
    Chroma subsampling             : 4:2:0
    Bit depth                      : 8 bits
    Scan type                      : Progressive
    Bits/(Pixel*Frame)             : 0.321
    Stream size                    : 1.23 GiB (99%)
    Source stream size             : 1.23 GiB (99%)
    Title                          : VideoHandle
    Language                       : English
    Encoded date                   : UTC 2021-02-14 10:22:17
    Tagged date                    : UTC 2021-02-14 10:22:17
    Color range                    : Full
    Color primaries                : BT.601 NTSC
    Transfer characteristics       : BT.601
    Matrix coefficients            : BT.601
    mdhd_Duration                  : 526597
    
    Audio
    ID                             : 2
    Format                         : AAC
    Format/Info                    : Advanced Audio Codec
    Format profile                 : LC
    Codec ID                       : 40
    Duration                       : 8 min 46 s
    Duration_FirstFrame            : 18 ms
    Bit rate mode                  : Constant
    Bit rate                       : 96.0 kb/s
    Channel(s)                     : 2 channels
    Channel positions              : Front: L R
    Sampling rate                  : 48.0 kHz
    Frame rate                     : 46.875 FPS (1024 SPF)
    Compression mode               : Lossy
    Stream size                    : 6.03 MiB (0%)
    Title                          : SoundHandle
    Language                       : English
    Encoded date                   : UTC 2021-02-14 10:22:17
    Tagged date                    : UTC 2021-02-14 10:22:17

  2. #2
    Администратор
    Регистрация
    18.04.2012
    Сообщений
    16 169
    Проблема в этом
    Код:
    Frame rate mode                : Variable
    Frame rate                     : 30.000 FPS
    Minimum frame rate             : 10.001 FPS
    Maximum frame rate             : 42.918 FPS
    Переконвертируйте ваше видео с постоянной частотой кадров.

  3. #3
    Участник форума
    Регистрация
    20.02.2021
    Сообщений
    2
    StCnt, Спасибо! После конвертации вывелось все без проблем.

Ваши права

  • Вы не можете создавать новые темы
  • Вы не можете отвечать в темах
  • Вы не можете прикреплять вложения
  • Вы не можете редактировать свои сообщения
  •