Купить

Pinnacle Studio 26 & Content Plus v.12.0

Намного больше возможностей, чем в обычной Pinnacle Studio 26 Ultimate!

Страница 1 из 2 12 ПоследняяПоследняя
Показано с 1 по 10 из 16

Тема: Импорт видеофайла - звук есть, видео нет

Информационный блок автора темы: Импорт видеофайла - звук есть, видео нет

Категория:
Проблема с видео
Операционная система
Windows 10
Версия Pinnacle Studio
26
Кодек сжатия видео
hvc1
У меня в профиле заполнена конфигурация компьютера
Нет
  1. #1
    Участник форума
    Регистрация
    17.09.2020
    Сообщений
    13

    Импорт видеофайла - звук есть, видео нет

    Здравствуйте.
    В файле после импорта доступен только звук.
    Файл с телефона samsung Note 20 ultra, формат mp4. с Xiaomi 8 Note такая же проблема формат тот же mp4
    До недавнего времени таких сложностей не было.
    с перекодировкой файлов проблема решается.
    Есть ли решение без перекодировки?
    Спасибо.

    Код:
    General
    Complete name                  : D:\BASEs\YandexDisk\VID_20230103_154700.mp4
    Format                         : MPEG-4
    Format profile                 : Base Media / Version 2
    Codec ID                       : mp42 (isom/mp42)
    File size                      : 19.7 MiB
    Duration                       : 10 s 0 ms
    Overall bit rate               : 16.5 Mb/s
    Encoded date                   : UTC 2023-01-03 12:47:10
    Tagged date                    : UTC 2023-01-03 12:47:10
    com.android.version            : 11
    mcvr                           : Kƒ¶é<™ì¸Å>bôgs˜KPèrµ\”á
    
    Video
    ID                             : 1
    Format                         : HEVC
    Format/Info                    : High Efficiency Video Coding
    Format profile                 : Main@L4.1@Main
    Codec ID                       : hvc1
    Codec ID/Info                  : High Efficiency Video Coding
    Duration                       : 10 s 0 ms
    Source duration                : 9 s 998 ms
    Bit rate                       : 15.4 Mb/s
    Width                          : 1 920 pixels
    Height                         : 1 080 pixels
    Display aspect ratio           : 16:9
    Frame rate mode                : Variable
    Frame rate                     : 59.811 FPS
    Minimum frame rate             : 20.013 FPS
    Maximum frame rate             : 60.362 FPS
    Real frame rate                : 60.000 FPS
    Color space                    : YUV
    Chroma subsampling             : 4:2:0
    Bit depth                      : 8 bits
    Bits/(Pixel*Frame)             : 0.124
    Stream size                    : 18.3 MiB (93%)
    Source stream size             : 18.3 MiB (93%)
    Title                          : VideoHandle
    Language                       : English
    Encoded date                   : UTC 2023-01-03 12:47:10
    Tagged date                    : UTC 2023-01-03 12:47:10
    Color range                    : Limited
    Color primaries                : BT.709
    Transfer characteristics       : BT.709
    Matrix coefficients            : BT.709
    mdhd_Duration                  : 10000
    Codec configuration box        : hvcC
    
    Audio
    ID                             : 2
    Format                         : AAC LC
    Format/Info                    : Advanced Audio Codec Low Complexity
    Codec ID                       : mp4a-40-2
    Duration                       : 9 s 941 ms
    Bit rate mode                  : Constant
    Bit rate                       : 128 kb/s
    Channel(s)                     : 1 channel
    Channel layout                 : C
    Sampling rate                  : 48.0 kHz
    Frame rate                     : 46.875 FPS (1024 SPF)
    Compression mode               : Lossy
    Stream size                    : 155 KiB (1%)
    Title                          : SoundHandle
    Language                       : English
    Encoded date                   : UTC 2023-01-03 12:47:10
    Tagged date                    : UTC 2023-01-03 12:47:10
    Последний раз редактировалось Chituk; 03.01.2023 в 16:04.

  2. #2
    Администратор
    Регистрация
    18.04.2012
    Сообщений
    17 188
    У вас всё с этим файлом плохо

    Видео сжато кодеком HEVC, для обработки его в Pinnacle Studio необходимо соответствующие железо и установленный кодек Microsoft HEVC

    Но самое плохое - переменная частота кадров
    Код:
    Frame rate : 57.134 FPS
    Minimum frame rate : 5.001 FPS
    Maximum frame rate : 60.362 FPS
    Ни один видеоредактор такое видео обрабатывать практические не может.

    В вашем случае конвертация необходима с постоянной частотой кадров.

  3. #3
    Администратор
    Регистрация
    18.04.2012
    Сообщений
    17 188
    Chituk, Вы зачем изменили технические характеристики видео, после того как я вам ответил?

    Суть ответа не изменилась - та же проблема с переменной частотой кадров.

  4. #4
    Участник форума
    Регистрация
    17.09.2020
    Сообщений
    13
    Изменил на более полное описание.

    с телефонов , до последнего времени, импортировал файлы без проблем. 12 декабря была первая проблема.
    Спасибо.

  5. #5
    Администратор
    Регистрация
    18.04.2012
    Сообщений
    17 188
    Цитата Сообщение от Chituk Посмотреть сообщение
    с телефонов , до последнего времени, импортировал файлы без проблем
    Это говорит о том, насколько Pinnacle Studio 26 хороша, что даже ваше видео не предназначенное для редактирования она смогла частично "переварит".

    P.S. Проблема не связана с программой, это проблема смартфона, который снимает с переменной частотой кадров.

  6. #6
    Участник форума
    Регистрация
    17.09.2020
    Сообщений
    13
    Цитата Сообщение от StCnt Посмотреть сообщение
    Это говорит о том, насколько Pinnacle Studio 26 хороша, что даже ваше видео не предназначенное для редактирования она смогла частично "переварит".

    P.S. Проблема не связана с программой, это проблема смартфона, который снимает с переменной частотой кадров.
    тут соглашусь безусловно...

    - - - - - Добавлено - - - - -

    решено установкой Microsoft HEVC
    куда делся кодек изначально так и не понял, допускаю с удаления и чистки компа после всех пинаклов начиная с 23 ))

    Спасибо!

  7. #7
    Администратор
    Регистрация
    18.04.2012
    Сообщений
    17 188
    Цитата Сообщение от Chituk Посмотреть сообщение
    решено установкой Microsoft HEVC
    куда делся кодек изначально так и не понял, допускаю с удаления и чистки компа после всех пинаклов начиная с 23 ))
    Это системный кодек, устанавливается через магазин Microsoft. Видимо сами удали из системы.

  8. #8
    Участник форума
    Регистрация
    17.09.2020
    Сообщений
    13
    Похоже на косяк с обновлением винды - на обоих компах такая проблема, второй не чистил и не копался в нём.
    А через магазин - 0,99 usd

  9. #9
    Администратор
    Регистрация
    18.04.2012
    Сообщений
    17 188
    Цитата Сообщение от Chituk Посмотреть сообщение
    Похоже на косяк с обновлением винды
    А кодек устанавливали из магазина или в режиме разработчика файлом Microsoft.HEVCVideoExtension*.Appx?

  10. #10
    Участник форума
    Регистрация
    17.09.2020
    Сообщений
    13
    разработчиком

Ваши права

  • Вы не можете создавать новые темы
  • Вы не можете отвечать в темах
  • Вы не можете прикреплять вложения
  • Вы не можете редактировать свои сообщения
  •