Купить

Pinnacle Studio 26 & Content Plus v.12.0

Намного больше возможностей, чем в обычной Pinnacle Studio 26 Ultimate!

Показано с 1 по 9 из 9

Тема: Артефакты в видео

Информационный блок автора темы: Артефакты в видео

Категория:
Проблема с видео
Операционная система
Windows 10
Версия Pinnacle Studio
26
Кодек сжатия видео
h.264
У меня в профиле заполнена конфигурация компьютера
Нет
  1. #1
    Участник форума
    Регистрация
    17.08.2020
    Сообщений
    51

    Артефакты в видео

    при экспорте видео и после просмотра видео я нашёл проблему в видео.

    Нажмите на изображение для увеличения. 

Название:	Снимок.JPG 
Просмотров:	7 
Размер:	74,2 Кб 
ID:	1426

    В этом месте видео происходит ухудшение качество видео и сразу же восстановление в нормальное качество видео. Я подозреваю что это присходит когда заканчивается какой-либо эффект на изображение и когда начинается

    во всех проигрывателей в которых я смотрю это видео всё тоже самое

    Как исправить такие баги с экспортом

  2. #2
    Администратор
    Регистрация
    18.04.2012
    Сообщений
    17 188
    Выложите полные технические характеристики исходного видео

  3. #3
    Участник форума
    Регистрация
    17.08.2020
    Сообщений
    51
    Нажмите на изображение для увеличения. 

Название:	Снимок.JPG 
Просмотров:	13 
Размер:	17,6 Кб 
ID:	1427

    я больше незнаю как узнать информацию о видео

    - - - - - Добавлено - - - - -

    Код:
    Общее
    Полное имя                               : C:\Users\TBOIR\Downloads\Отчёт 17.01.2023.mp4
    Формат                                   : MPEG-4
    Профиль формата                          : Base Media / Version 2
    Идентификатор кодека                     : mp42 (mp42/isom)
    Размер файла                             : 1,98 Гбайт
    Продолжительность                        : 32 м. 0 с.
    Режим общего битрейта                    : Переменный
    Общий поток                              : 8 861 Кбит/сек
    Дата кодирования                         : UTC 2022-12-30 16:11:34
    Дата пометки                             : UTC 2022-12-30 16:11:34
    
    Видео
    Идентификатор                            : 1
    Формат                                   : AVC
    Формат/Информация                        : Advanced Video Codec
    Профиль формата                          : High@L4.1
    Настройки формата                        : CABAC / 2 Ref Frames
    Параметр CABAC формата                   : Да
    Параметр RefFrames формата               : 2 кадра
    Параметр GOP формата                     : M=2, N=15
    Идентификатор кодека                     : avc1
    Идентификатор кодека/Информация          : Advanced Video Coding
    Продолжительность                        : 31 м. 59 с.
    Вид битрейта                             : Переменный
    Битрейт                                  : 8 598 Кбит/сек
    Максимальный битрейт                     : 9 000 Кбит/сек
    Ширина                                   : 1 280 пикселей
    Высота                                   : 720 пикселей
    Соотношение сторон                       : 16:9
    Режим частоты кадров                     : Постоянный
    Частота кадров                           : 59,940 (59940/1000) кадров/сек
    Частота кадров в оригинале               : 59,940 (60000/1001) кадров/сек
    Цветовое пространство                    : YUV
    Субдискретизация насыщенности            : 4:2:0
    Битовая глубина                          : 8 бит
    Тип развёртки                            : Прогрессивная
    Бит/(Пиксели*Кадры)                      : 0.156
    Размер потока                            : 1,92 Гбайт (97%)
    Язык                                     : English
    Дата кодирования                         : UTC 2022-12-30 16:11:34
    Дата пометки                             : UTC 2022-12-30 16:11:34
    Codec configuration box                  : avcC
    
    Аудио
    Идентификатор                            : 2
    Формат                                   : AAC LC
    Формат/Информация                        : Advanced Audio Codec Low Complexity
    Идентификатор кодека                     : mp4a-40-2
    Продолжительность                        : 32 м. 0 с.
    Вид битрейта                             : Переменный
    Битрейт                                  : 256 Кбит/сек
    Максимальный битрейт                     : 263 Кбит/сек
    Каналы                                   : 2 канала
    Channel layout                           : L R
    Частота                                  : 48,0 КГц
    Частота кадров                           : 46,875 кадров/сек (1024 SPF)
    Метод сжатия                             : С потерями
    Размер потока                            : 58,6 Мбайт (3%)
    Язык                                     : English
    Дата кодирования                         : UTC 2022-12-30 16:11:34
    Дата пометки                             : UTC 2022-12-30 16:11:34
    
    Прочее #1
    Идентификатор                            : 3
    Тип                                      : Object description
    Формат                                   : System Core
    Идентификатор кодека                     : mp4s-02
    Размер потока                            : 0,00 байт
    Размер потока оригинала                  : 18,0 байт
    Язык                                     : English
    
    Прочее #2
    Идентификатор                            : 4
    Тип                                      : Scene description
    Формат                                   : System Core
    Идентификатор кодека                     : mp4s-02
    Размер потока                            : 0,00 байт
    Размер потока оригинала                  : 16,0 байт
    Язык                                     : English

  4. #4
    Администратор
    Регистрация
    18.04.2012
    Сообщений
    17 188
    Возможно разрезали по полукадру. Конвертация в монтажный кодек решит проблему проблему на 100%, ну а так пробуйте подрезать видео на 1-2 кадра, пока не попадёте на ключевой кадр, или поробуйте убрать эффект, или попробуйте вывести в другой формат.

  5. #5
    Участник форума
    Регистрация
    17.08.2020
    Сообщений
    51
    Цитата Сообщение от StCnt Посмотреть сообщение
    Конвертация в монтажный кодек решит проблему проблему на 100%
    какой именно? и как это сделать?

  6. #6
    Администратор
    Регистрация
    18.04.2012
    Сообщений
    17 188
    Для Pinnacle Studio лучше всего CineForm, с цветовым пространством YUV.

    Для конвертации используют стороннюю программу.

  7. #7
    Участник форума
    Регистрация
    17.08.2020
    Сообщений
    51
    Цитата Сообщение от StCnt Посмотреть сообщение
    Для Pinnacle Studio лучше всего CineForm, с цветовым пространством YUV.
    слишком большой размер получится там меньше 64 мб/с нельзя сделать

    Цитата Сообщение от StCnt Посмотреть сообщение
    Возможно разрезали по полукадру
    Нажмите на изображение для увеличения. 

Название:	Снимок (1).JPG 
Просмотров:	13 
Размер:	15,6 Кб 
ID:	1428

    я ничего не резал. Дуратская программа потому-что. Я попробую ещё раз экспортировать но мне перестаёт нравится эта программа

    - - - - - Добавлено - - - - -

    даже в другом месте видео есть та же история там тоже есть эффект и когда он заканчивается то происходит артефакт на 0.5 секунд. Такого нет только тогда когда ты смотришь видео прям в pinnacle

    бред какой-то

    - - - - - Добавлено - - - - -

    очень странно но у меня пропали артефакты когда я поставил 30 кадров и 6 мб/сек в том же формате mp4 сейчас попробую ещё сделать собственные настройки 60 кадров и 5 мб/сек

    - - - - - Добавлено - - - - -

    да и так тоже без артефактов. вопрос решён спасибо

  8. #8
    Администратор
    Регистрация
    18.04.2012
    Сообщений
    17 188
    У вас на снимке экрана в начале видео видны статические кадры - возможно в этом проблема, и при фоновом просчёте были ошибки, в этом случае перед выводом нужно удалить файлы фонового просчёта и вывести видео заново. У вас видео низкого разрешения, можно попробовать полностью отключить фоновый просчёт. Возможно напутали в настройках проекта с частотой кадров.

  9. #9
    Участник форума
    Регистрация
    17.08.2020
    Сообщений
    51
    Это тут не причём в другом видео, а точнее, там тоже изображение такой проблемы нет. Там есть 2 изображения, то есть это как бы не видео, а изображение. Есть некоторые проблемы да. В любом случае. Я уже решил проблему. Изменение настроек в экспорте. Ну, в любом случае. Спасибо.

Ваши права

  • Вы не можете создавать новые темы
  • Вы не можете отвечать в темах
  • Вы не можете прикреплять вложения
  • Вы не можете редактировать свои сообщения
  •