Купить за 1600 RUB (~25 USD)

Pinnacle Studio 20 & Content Plus v.6.0

Расширьте возможности Pinnacle Studio простым способом!

Показано с 1 по 10 из 10

Тема: Pinnacle Studio не открывает файлы

  1. #1
    Участник форума
    Регистрация
    24.06.2012
    Сообщений
    4

    Pinnacle Studio не открывает файлы

    У меня почему-то в Win7 студия открывает не все файлы avi, раньше на XP открывала без проблем.

  2. #2
    Администратор
    Регистрация
    18.04.2012
    Сообщений
    11 330
    Быстрей всего кодека какого-то не хватает.
    Выложите информацию об avi файле.

    Получить информацию можно в KMPlayer (Информация о записи…)
    Или с помощью специализированной программы MediaInfo

  3. #3
    Участник форума
    Регистрация
    24.06.2012
    Сообщений
    4
    Инфа из KMPlayer

    Код:
    General
    Format : AVI
    Format/Info : Audio Video Interleave
    File size : 23.7 MiB
    Duration : 18s 40ms
    Overall bit rate : 11.0 Mbps
    
    Video #0
    ID : 0
    Format : Indeo 4
    Codec ID : IV50
    Codec ID/Info : Intel Indeo Video 5.0 Wavelet
    Duration : 18s 40ms
    Bit rate : 11.0 Mbps
    Width : 720 pixels
    Height : 576 pixels
    Display aspect ratio : 5:4
    Frame rate : 25.000 fps
    Standard : PAL
    Bits/(Pixel*Frame) : 1.063
    Stream size : 23.7 MiB (100%)

  4. #4
    Администратор
    Регистрация
    18.04.2012
    Сообщений
    11 330
    Intel Indeo Video - кодек очень старый, в Windows 7 его нет.
    Вам надо его установить.

    Скачать Ligos Indeo XP 5.2 codec с Яндекс.Диск (0.5 Mb)

  5. #5
    Участник форума
    Регистрация
    27.10.2012
    Сообщений
    6
    Этот файл не импортируется в Pinnacle Studio 16

    Код:
    General
    lower third.mov
    Format                                   : MPEG-4
    Format profile                           : QuickTime
    Codec ID                                 : qt  
    File size                                : 219 MiB
    Duration                                 : 8s 640ms
    Overall bit rate mode                    : Variable
    Overall bit rate                         : 212 Mbps
    Encoded date                             : UTC 2010-08-09 11:45:43
    Tagged date                              : UTC 2012-10-25 19:22:17
    Writing library                          : Apple QuickTime
    
    Video
    ID                                       : 1
    Format                                   : RLE
    Format/Info                              : Run-length encoding
    Codec ID                                 : rle 
    Duration                                 : 8s 640ms
    Bit rate mode                            : Variable
    Bit rate                                 : 211 Mbps
    Width                                    : 1 920 pixels
    Height                                   : 1 080 pixels
    Display aspect ratio                     : 16:9
    Frame rate mode                          : Constant
    Frame rate                               : 25.000 fps
    Bits/(Pixel*Frame)                       : 4.079
    Stream size                              : 218 MiB (100%)
    Language                                 : English
    Encoded date                             : UTC 2010-08-09 11:45:43
    Tagged date                              : UTC 2010-08-09 11:49:29

  6. #6
    Администратор
    Регистрация
    18.04.2012
    Сообщений
    11 330
    Установите проигрыватель QuickTime.

  7. #7
    Участник форума
    Регистрация
    27.10.2012
    Сообщений
    6
    После установки все равно ошибка при импорте
    Последний раз редактировалось lokeshlov; 05.11.2012 в 15:26.

  8. #8
    Администратор
    Регистрация
    18.04.2012
    Сообщений
    11 330
    Проигрыватель QuickTime этот файл открывает?

  9. #9
    Участник форума
    Регистрация
    27.10.2012
    Сообщений
    6
    Quicktime Player воспроизводит эти файлы, но не импортируются в студию

  10. #10
    Супер-модератор
    Регистрация
    11.08.2012
    Сообщений
    256
    Скопируйте файл в корень диска(ов) например с:\third.mov d:\third.mov и попробуйте так

Ваши права

  • Вы не можете создавать новые темы
  • Вы не можете отвечать в темах
  • Вы не можете прикреплять вложения
  • Вы не можете редактировать свои сообщения
  •