Купить

Pinnacle Studio 26 & Content Plus v.12.0

Намного больше возможностей, чем в обычной Pinnacle Studio 26 Ultimate!

Показано с 1 по 7 из 7

Тема: Замедление и глухой звук в Pinnacle Studio 25

  1. #1
    Участник форума
    Регистрация
    17.01.2022
    Сообщений
    4

    Замедление и глухой звук в Pinnacle Studio 25

    Здравствуйте. Решил перебрать свой видеоархив, но при добавление Pinnacle Studio видео идет, а звук звук замедленный и глухой, как будто говорят по водой. В проигрывателе звук воспроизводится правильно.

    Захват видео делал давно, кассет не сохранилось.

    Работаю в Pinnacle Studio 25 Ultimate.

  2. #2
    Администратор
    Регистрация
    18.04.2012
    Сообщений
    16 956
    Выложите полные характеристики исходных файлов.

    Характеристики можно получить, например, с помощью MediaInfo

  3. #3
    Участник форума
    Регистрация
    17.01.2022
    Сообщений
    4
    Код:
    Video
    ID                             : 0
    Format                         : DV
    Commercial name                : DVCAM
    Duration                       : 2 min 45 s
    Bit rate mode                  : Constant
    Bit rate                       : 24.4 Mb/s
    Width                          : 720 pixels
    Height                         : 576 pixels
    Display aspect ratio           : 4:3
    Frame rate mode                : Constant
    Frame rate                     : 25.000 FPS
    Standard                       : PAL
    Color space                    : YUV
    Chroma subsampling             : 4:2:0
    Bit depth                      : 8 bits
    Scan type                      : Interlaced
    Scan order                     : Bottom Field First
    Compression mode               : Lossy
    Bits/(Pixel*Frame)             : 2.357
    Stream size                    : 568 MiB (100%)
    
    Audio
    ID                             : 0-0
    Format                         : PCM
    Format settings                : Big / Signed
    Muxing mode                    : DV
    Muxing mode, more info         : Muxed in Video #1
    Duration                       : 2 min 45 s
    Bit rate mode                  : Constant
    Bit rate                       : 1 536 kb/s
    Channel(s)                     : 2 channels
    Sampling rate                  : 48.0 kHz
    Bit depth                      : 16 bits
    Stream size                    : 30.3 MiB (5%)

  4. #4
    Администратор
    Регистрация
    18.04.2012
    Сообщений
    16 956
    Вот ваша проблема
    Код:
    ID                             : 0-0
    Muxing mode                    : DV
    Muxing mode, more info         : Muxed in Video #1
    Неправильное ID аудиодорожки, пересоберите в конвертере контейнер AVI (без конвертирования). Чтобы у аудиодорожки ID стал 1.

    После правильной пересборки контейнера AVI, ID аудиодорожки должно стать 1, и из характеристик аудио пропасть "Muxing mode".

  5. #5
    Участник форума
    Регистрация
    17.01.2022
    Сообщений
    4
    Цитата Сообщение от StCnt Посмотреть сообщение
    пересоберите в конвертере контейнер AVI (без конвертирования)
    А не подскажите, в какой программе это лучше сделать?

  6. #6
    Администратор
    Регистрация
    18.04.2012
    Сообщений
    16 956
    Могу подсказать только по ffmpeg
    Код:
    ffmpeg.exe -i "исходный файл.avi" -hide_banner -vcodec copy -acodec copy "выходной файл.avi"
    но это консольная программа

    Ну а так, можете попробовать XMedia Recode, у него вроде есть копирование потоков.

  7. #7
    Участник форума
    Регистрация
    17.01.2022
    Сообщений
    4
    XMedia Recode отработала отлично. Спасибо!

Ваши права

  • Вы не можете создавать новые темы
  • Вы не можете отвечать в темах
  • Вы не можете прикреплять вложения
  • Вы не можете редактировать свои сообщения
  •